request a movie

movie info

Kaashi in Search of Ganga 2018 torrents download yify torrentyts.com

Bollywood(INDIA)

2018

Language :Hindi

Genre :Adventure

Description
Kaashi in Search of Ganga 2018 Pre DvD Rip h264 AC3 Torrent Download Torrent Name: Kaashi in Search of Ganga Year of Release: 2018 Language : Hindi Size: 1.6 GB Updated on: 2018-11-03 15:41:34 Category : Bollywood Kaashi in Search of Ganga Torent Details Kaashi in Search of Ganga (2018) Pre DvD Rip h264 ac3 - DESIMOVIZ.COM Format : Matroska Format version : Version 4 / Version 2 File size : 1.61 GiB Duration : 1 h 59 min Overall bit rate : 1 932 kb/s Movie name : DESIMOVIZ.COM Encoded date : UTC 2018-11-02 05:05:06 Writing application : mkvmerge v25.0.0 (Prog Noir) 64-bit Writing library : libebml v1.3.6 + libmatroska v1.4.9 Video ID : 1 Format : AVC Format/Info : Advanced Video Codec Format profile : Main@L3 Format settings : CABAC / 1 Ref Frames Format settings, CABAC : Yes Format settings, RefFrames : 1 frame Codec ID : V_MPEG4/ISO/AVC Duration : 1 h 59 min Bit rate : 1 595 kb/s Width : 720 pixels Height : 304 pixels Display aspect ratio : 2.35:1 Frame rate mode : Variable Frame rate : 24.057 FPS Color space : YUV Chroma subsampling : 4:2:0 Bit depth : 8 bits Scan type : Progressive Bits/(Pixel*Frame) : 0.303 Stream size : 1.33 GiB (82%) Title : DESIMOVIZ.COM Writing library : x264 core 129 Default : Yes Forced : No Audio ID : 2 Format : AAC Format/Info : Advanced Audio Codec Format profile : LC Codec ID : A_AAC-2 Duration : 1 h 59 min Bit rate : 339 kb/s Channel(s) : 6 channels Channel positions : Front: L C R, Side: L R, LFE Sampling rate : 48.0 kHz Frame rate : 46.875 FPS (1024 SPF) Compression mode : Lossy Stream size : 290 MiB (18%) Title : DESIMOVIZ.COM Default : Yes Forced : No Kaashi in Search of Ganga torrent Kaashi in Search of Ganga Trailer: Download Torrent 1.6 GB Watch Online Torrent Link (U) Screen Shots: Kaashi in Search of Ganga .. HD Cover / Poster Kaashi in Search of Ganga .. Screenshot 1 Kaashi in Search of Ganga .. Screenshot 2 Kaashi in Search of Ganga .. Screenshot 3 Kaashi in Search of Ganga .. Screenshot 4 Kaashi in Search of Ganga .. Screenshot 5 Kaashi in Search of Ganga .. Screenshot 6 Kaashi in Search of Ganga .. Screenshot 7 Kaashi in Search of Ganga .. Screenshot 8 Kaashi in Search of Ganga Download Torrent for free Enjoy real quality torrents from bingtorrent, Kaashi in Search of Ganga torrent download from kickass, piratesbay, yts yify, extratorrents links. we provide best quality links so your time can be saved. Download for pc laptops or for mobile. enjoy. You can Also Download | Movies (Bollywood Hindi, English Hollywood, Southindian, Tamil, Telugu, Arabic, Dubbed Hindi, Lollywood Pakistani) Torrents | Games Torrents | Tv Shows Torrents | Ebooks Torrents, Music (Songs) Torrents | Softwares Torrents | and Much More
in Search of Ganga Trailer

Published on 05 November 2018 (Posted By - imu)

views ( 1781 )

If download not worked then copy the link and paste it browser directly

direct link

link not available

Torrent link

magnet:?xt=urn:btih:8480F804608231DB553B9EBB844C0C9DBAE2BA46&dn=Kaashi+in+Search+of+Ganga+%282018%29+Pre+DvD+Rip+h264+ac3++-+DESIMOVIZ.COM&tr=UDP%3A%2F%2FTRACKER.LEECHERS-PARADISE.ORG%3A6969%2FANNOUNCE&tr=UDP%3A%2F%2FTRACKER.COPPERSURFER.TK%3A6969%2FANNOUNCE&tr=UDP%3A%2F%2FTRACKER.OPENTRACKR.ORG%3A1337%2FANNOUNCE&tr=UDP%3A%2F%2FTRACKER.ZER0DAY.TO%3A1337%2FANNOUNCE&tr=UDP%3A%2F%2FEDDIE4.NL%3A6969%2FANNOUNCE&tr=udp%3A%2F%2Ftracker.zer0day.to%3A1337%2Fannounce&tr=udp%3A%2F%2Ftracker.leechers-paradise.org%3A6969%2Fannounce&tr=udp%3A%2F%2Fcoppersurfer.tk%3A6969%2Fannounce

magnet link

magnet:?xt=urn:btih:8480F804608231DB553B9EBB844C0C9DBAE2BA46&dn=Kaashi+in+Search+of+Ganga+%282018%29+Pre+DvD+Rip+h264+ac3++-+DESIMOVIZ.COM&tr=UDP%3A%2F%2FTRACKER.LEECHERS-PARADISE.ORG%3A6969%2FANNOUNCE&tr=UDP%3A%2F%2FTRACKER.COPPERSURFER.TK%3A6969%2FANNOUNCE&tr=UDP%3A%2F%2FTRACKER.OPENTRACKR.ORG%3A1337%2FANNOUNCE&tr=UDP%3A%2F%2FTRACKER.ZER0DAY.TO%3A1337%2FANNOUNCE&tr=UDP%3A%2F%2FEDDIE4.NL%3A6969%2FANNOUNCE&tr=udp%3A%2F%2Ftracker.zer0day.to%3A1337%2Fannounce&tr=udp%3A%2F%2Ftracker.leechers-paradise.org%3A6969%2Fannounce&tr=udp%3A%2F%2Fcoppersurfer.tk%3A6969%2Fannounce

Disclaimer DMCA.com Protection Status

torrentyts.com is absolutly legal and contain only links to other sites, We do not host any films, media files (avi, mov, flv, mpg, mpeg, divx, dvd rip, mp3, mp4, torrent, ipod, psp) on our server, so torrentyts.com is not responsible for the accuracy, compliance, copyright, legality, decency.If you have any legal issues please contact the appropriate media file owners or host sites.

similar movies

Jaws 1975 Action /

1975English

Hollywood(USA)

Adventure

view Details

The Goonies 1985

1985English

Hollywood(USA)

Adventure

view Details

Pirates of

2017English

Hollywood(USA)

Adventure

view Details